<?xml version="1.0" standalone="no"?>
<!DOCTYPE svg PUBLIC "-//W3C//DTD SVG 1.1//EN" "http://www.w3.org/Graphics/SVG/1.1/DTD/svg11.dtd" >
<svg xmlns="http://www.w3.org/2000/svg" xmlns:xlink="http://www.w3.org/1999/xlink" version="1.1">
<metadata>
Created by FontForge 20161003 at Thu Mar 30 08:34:48 2017
 By www-data
Copyright (c) 2015 by Ellis Design. All rights reserved.
</metadata>
<defs>
<font id="Alcubierre" horiz-adv-x="608" >
  <font-face 
    font-family="Alcubierre"
    font-weight="400"
    font-stretch="normal"
    units-per-em="1000"
    panose-1="2 0 0 0 0 0 0 0 0 0"
    ascent="750"
    descent="-250"
    x-height="500"
    cap-height="705"
    bbox="-74 -965 1088 911"
    underline-thickness="50"
    underline-position="-150"
    unicode-range="U+0020-20AC"
  />
<missing-glyph horiz-adv-x="500" 
 />
    <glyph glyph-name=".notdef" horiz-adv-x="500" 
 />
    <glyph glyph-name=".null" horiz-adv-x="0" 
 />
    <glyph glyph-name="nonmarkingreturn" horiz-adv-x="333" 
 />
    <glyph glyph-name="space" unicode=" " horiz-adv-x="281" 
 />
    <glyph glyph-name="space" unicode="&#xa0;" horiz-adv-x="281" 
 />
    <glyph glyph-name="exclam" unicode="!" horiz-adv-x="160" 
d="M61 701h42v-515h-42v515zM81 73q14 0 24 -10t10 -24q0 -13 -10 -23t-24 -10q-13 0 -23 10t-10 23q0 14 10 24t23 10z" />
    <glyph glyph-name="numbersign" unicode="#" horiz-adv-x="986" 
d="M784 188h-181l-114 -189h-51l112 189h-325l-113 -189h-52l112 189h-128v39h151l145 245h-148v39h171l115 194h56l-116 -194h323l115 194h56l-116 -194h136v-39h-159l-147 -245h158v-39zM248 227h325l145 245h-323z" />
    <glyph glyph-name="dollar" unicode="$" horiz-adv-x="540" 
d="M251 754h37v-55q80 -11 129 -57l-20 -34q-57 52 -139 56q-67 0 -111 -42t-44 -102q0 -52 40 -86.5t99 -40.5q247 -25 247 -199q0 -80 -58 -136t-143 -58v-58h-37v61q-131 18 -183 97l23 30q27 -41 76 -64.5t85 -25.5l36 -3q72 0 117 46t45 116q0 36 -14 63.5t-33 42.5
t-46.5 26t-48 14.5t-43.5 6.5t-27 4q-23 4 -43 9.5t-45 18t-43 29.5t-30 44.5t-12 62.5q0 73 53 126t133 55v53z" />
    <glyph glyph-name="uni0025" unicode="%" horiz-adv-x="760" 
d="M327 560q0 -58 -40.5 -99.5t-96.5 -41.5q-57 0 -97 41t-40 100t40 100t97 41q56 0 96.5 -41.5t40.5 -99.5zM190 664q-42 0 -72 -30.5t-30 -73.5t30 -73.5t72 -30.5q41 0 71 30.5t30 73.5t-30 73.5t-71 30.5zM600 279q57 0 96.5 -41t39.5 -98q0 -59 -39.5 -100t-96.5 -41
q-56 0 -96 41.5t-40 99.5q0 57 40 98t96 41zM600 36q41 0 70.5 30.5t29.5 73.5q0 42 -29.5 72t-70.5 30t-70.5 -30t-29.5 -72q0 -43 29.5 -73.5t70.5 -30.5zM569 699h53l-417 -699h-49z" />
    <glyph glyph-name="ampersand" unicode="&#x26;" horiz-adv-x="739" 
d="M516 173l158 -175h-44l-126 140l-20 -35q-32 -47 -82 -74.5t-108 -28.5h-1q-95 1 -163 67t-68 159q0 65 34.5 119t93.5 82l38 13l-28 34q-23 30 -27.5 69.5t8 74.5t44.5 59t77 24q57 0 95.5 -37t38.5 -105q-1 -45 -32 -80t-72 -48l-41 -11l193 -212v91h35v-74
q0 -27 -3 -52zM202 569q2 -53 24 -76l39 -46l15 2.5t33 9.5t42.5 20t33.5 36t16 54q1 44 -30 75t-75 28q-26 -1 -45.5 -12.5t-29 -25t-15.5 -29.5t-7 -24.5t-1 -11.5zM467 150l7 20l-217 242l-19 -5q-62 -18 -100.5 -68.5t-38.5 -112.5q0 -73 44.5 -122.5t104 -62t122.5 15
t97 93.5z" />
    <glyph glyph-name="parenleft" unicode="(" horiz-adv-x="281" 
d="M62 376q0 126 40.5 228.5t97.5 146.5l14 -34q-54 -39 -88.5 -139.5t-34.5 -201.5t36.5 -202.5t92.5 -139.5l-18 -34q-57 42 -98.5 145.5t-41.5 230.5z" />
    <glyph glyph-name="parenright" unicode=")" horiz-adv-x="272" 
d="M220 376q0 -127 -41.5 -230.5t-98.5 -145.5l-18 34q56 38 92.5 139.5t36.5 202.5t-34.5 201.5t-88.5 139.5l14 34q57 -44 97.5 -146.5t40.5 -228.5z" />
    <glyph glyph-name="asterisk" unicode="*" horiz-adv-x="833" 
d="M535 620v-14h-72l51 -50l-10 -10l-50 51v-71h-14v71l-49 -51l-10 10l50 50h-71v14h71l-50 50l10 10l49 -51v71h14v-71l50 51l10 -10l-51 -50h72z" />
    <glyph glyph-name="plus" unicode="+" horiz-adv-x="421" 
d="M352 318v-39h-127v-127h-38v127h-128v39h128v127h38v-127h127z" />
    <glyph glyph-name="comma" unicode="," horiz-adv-x="234" 
d="M48 -48l103 138l36 -28l-101 -137z" />
    <glyph glyph-name="hyphen" unicode="-" horiz-adv-x="381" 
d="M39 321h272v-41h-272v41z" />
    <glyph glyph-name="period" unicode="." horiz-adv-x="177" 
d="M87 46q10 0 16 -6.5t6 -15.5q0 -22 -22 -22q-9 0 -15.5 6t-6.5 16q0 9 6.5 15.5t15.5 6.5z" />
    <glyph glyph-name="slash" unicode="/" horiz-adv-x="609" 
d="M79 -3l422 705h44l-417 -705h-49z" />
    <glyph glyph-name="zero" unicode="0" horiz-adv-x="570" 
d="M280 699q98 0 167.5 -72t69.5 -173v-213q0 -101 -69.5 -172.5t-167.5 -71.5t-167.5 71.5t-69.5 172.5v213q0 101 69.5 173t167.5 72zM481 241v213q0 85 -59 145.5t-142 60.5t-142 -60.5t-59 -145.5v-213q0 -85 59 -145.5t142 -60.5t142 60.5t59 145.5z" />
    <glyph glyph-name="one" unicode="1" horiz-adv-x="262" 
d="M198 -3h-38v666h-96v35h134v-701z" />
    <glyph glyph-name="two" unicode="2" horiz-adv-x="542" 
d="M280 699q85 0 144.5 -62t59.5 -149q0 -76 -45 -133l-339 -321h384v-35h-416v53l348 329q36 55 36 107q0 73 -50.5 124.5t-121.5 51.5q-65 0 -113 -43t-58 -107h-33q10 79 68 132t136 53z" />
    <glyph glyph-name="three" unicode="3" horiz-adv-x="507" 
d="M251 0q-74 0 -131.5 47t-71.5 117h37q13 -57 59.5 -93.5t106.5 -36.5q70 0 120 49t50 117q0 61 -40 107t-100 57v40q45 11 73.5 47t28.5 84q0 56 -38.5 95.5t-93.5 39.5q-46 0 -82 -30t-46 -75h-32q10 59 55 98.5t105 39.5q68 0 115.5 -49t47.5 -119q0 -73 -51 -122
l-27 -26l31 -21q91 -61 91 -166q0 -83 -61 -141.5t-146 -58.5z" />
    <glyph glyph-name="four" unicode="4" horiz-adv-x="640" 
d="M582 205v-36h-100v-170h-37v168h-386l386 535h37v-497h100zM134 205h311v430z" />
    <glyph glyph-name="five" unicode="5" horiz-adv-x="543" 
d="M277 0q-90 0 -158 62t-79 154h36q11 -76 68 -126.5t133 -50.5q84 0 144 61t60 147t-60 147t-144 61q-70 0 -125 -44h-56l1 293h344v-39h-304l-1 -213q93 42 141 42q99 0 169 -73t70 -174q0 -103 -70 -175t-169 -72z" />
    <glyph glyph-name="six" unicode="6" horiz-adv-x="550" 
d="M55 342q4 10 45.5 80.5t94 159t71.5 121.5h42l-134 -230q66 23 104 23q99 0 169.5 -72.5t70.5 -173.5q0 -103 -70.5 -175.5t-169.5 -72.5t-169.5 72.5t-70.5 175.5q0 45 17 92zM278 457q-81 0 -142.5 -61.5t-61.5 -145.5q0 -86 59.5 -147.5t144.5 -61.5t144.5 61.5
t59.5 147.5t-59.5 146.5t-144.5 60.5z" />
    <glyph glyph-name="seven" unicode="7" horiz-adv-x="602" 
d="M59 702h487l-420 -703h-44l392 664h-415v39z" />
    <glyph glyph-name="eight" unicode="8" horiz-adv-x="524" 
d="M262 -2q-91 -1 -152.5 69t-53.5 162q13 88 88 137l31 21l-27 26q-54 54 -49 146q8 59 50.5 100t100.5 45q3 1 16 0.5t19 -1.5q60 -9 100.5 -57t40.5 -110q0 -63 -52 -123l-27 -26l32 -21q89 -62 90 -177q0 -80 -59.5 -135t-147.5 -56zM130 544q0 -56 33.5 -95.5
t88.5 -47.5h19q51 5 87 43.5t36 91.5q0 52 -33.5 90t-83.5 44q-2 1 -24 1q-48 -4 -83.5 -40t-39.5 -86v-1zM93 224q-11 -72 40.5 -131t128.5 -60q69 -1 117 43.5t53 110.5q5 70 -47 125t-124 55q-64 0 -112 -41t-56 -102z" />
    <glyph glyph-name="nine" unicode="9" horiz-adv-x="576" 
d="M501 363q-4 -10 -45.5 -80.5t-94 -159t-71.5 -121.5h-41l133 230q-66 -23 -104 -23q-99 0 -169.5 72.5t-70.5 173.5q0 103 70.5 175.5t169.5 72.5t169.5 -72.5t70.5 -175.5q0 -45 -17 -92zM278 248q81 0 142.5 61.5t61.5 145.5q0 86 -59.5 147.5t-144.5 61.5
t-144.5 -61.5t-59.5 -147.5t59.5 -146.5t144.5 -60.5z" />
    <glyph glyph-name="colon" unicode=":" horiz-adv-x="168" 
d="M87 92q10 0 16 -6.5t6 -15.5q0 -22 -22 -22q-9 0 -15.5 6t-6.5 16q0 9 6.5 15.5t15.5 6.5zM87 449q10 0 16 -6.5t6 -15.5q0 -22 -22 -22q-9 0 -15.5 6t-6.5 16q0 9 6.5 15.5t15.5 6.5z" />
    <glyph glyph-name="semicolon" unicode=";" horiz-adv-x="229" 
d="M53 -956l-5 -9l-3 2l5 9zM54 -941q0 -2 -2 -2q-3 0 -3 2q0 3 3 3q2 0 2 -3zM145 167l-103 -138l38 -27l101 137zM155 457q10 0 16 -6.5t6 -15.5q0 -22 -22 -22q-9 0 -15.5 6t-6.5 16q0 9 6.5 15.5t15.5 6.5z" />
    <glyph glyph-name="less" unicode="&#x3c;" horiz-adv-x="483" 
d="M428 479l-290 -173l290 -173v-48l-375 221l375 222v-49z" />
    <glyph glyph-name="equal" unicode="=" horiz-adv-x="414" 
d="M53 409h300v-38h-300v38zM53 240h300v-41h-300v41z" />
    <glyph glyph-name="greater" unicode="&#x3e;" horiz-adv-x="482" 
d="M343 306l-290 173v49l375 -222l-375 -221v48z" />
    <glyph glyph-name="question" unicode="?" horiz-adv-x="480" 
d="M448 492q0 -75 -46 -133l-141 -129v-47h-43v48l161 154q36 50 36 107q0 73 -50.5 124.5t-121.5 51.5q-64 0 -112.5 -43t-57.5 -107h-33q9 79 67 132t136 53q85 0 145 -62t60 -149zM271 34q0 -14 -10 -24t-24 -10t-24.5 10t-10.5 24t10.5 24.5t24.5 10.5t24 -10.5
t10 -24.5z" />
    <glyph glyph-name="at" unicode="@" horiz-adv-x="779" 
d="M640 114q-14 -19 -37.5 -30.5t-45.5 -9.5q-20 1 -40.5 17t-24.5 39q-2 11 -2 36.5t1 45.5l1 20l-30 -20q-38 -26 -85 -26q-65 0 -111 47t-46 113q0 67 46 114t111 47q47 0 85 -26l30 -23v53h44v-350q2 -37 28 -37q25 0 52 30q20 26 32 51q35 67 35 144q0 125 -86.5 214.5
t-207.5 89.5t-207 -89.5t-86 -214.5q0 -117 75.5 -204t186.5 -99v-47q-129 12 -217 112.5t-88 237.5q0 145 98.5 248t237.5 103t238 -103t99 -248q0 -133 -86 -235zM491 331v33q-5 43 -38 72t-76 29q-48 0 -82 -35t-34 -84t34 -83.5t82 -34.5q44 0 76.5 29.5t37.5 73.5z" />
    <glyph glyph-name="A" unicode="A" horiz-adv-x="697" 
d="M521 166h-356l-67 -166h-50l296 703l298 -703h-51zM344 590l-163 -385h325z" />
    <glyph glyph-name="B" unicode="B" horiz-adv-x="558" 
d="M511 183q0 -74 -53 -127.5t-127 -54.5h-275v696h227q76 -1 130.5 -55.5t54.5 -131.5q0 -70 -49 -127l-26 -27l32 -19q40 -25 63 -66t23 -88zM96 657v-293h185q61 0 104 42.5t43 103.5q0 62 -43 104.5t-104 42.5h-185zM332 40q59 0 98 41t39 102q0 59 -39.5 99.5
t-100.5 40.5h-233v-283h236z" />
    <glyph glyph-name="C" unicode="C" horiz-adv-x="657" 
d="M411 700q96 0 180 -50l-21 -39q-69 44 -159 44q-125 0 -216.5 -91t-91.5 -216t91.5 -216t216.5 -91q87 0 161 46l20 -40q-83 -50 -181 -50q-145 0 -248 103t-103 248t103 248.5t248 103.5z" />
    <glyph glyph-name="D" unicode="D" horiz-adv-x="647" 
d="M580 352q0 -143 -101.5 -246.5t-243.5 -104.5h-173v700h173q143 -2 244 -104.5t101 -244.5zM104 40h126q125 0 215.5 93t90.5 219q0 125 -90.5 216t-215.5 91h-127z" />
    <glyph glyph-name="E" unicode="E" horiz-adv-x="520" 
d="M459 659h-358v-300h273v-39h-273v-281h349v-40h-389v698h398v-38z" />
    <glyph glyph-name="F" unicode="F" horiz-adv-x="528" 
d="M392 366v-40h-275v-326h-38v704h382v-40h-344v-298h275z" />
    <glyph glyph-name="G" unicode="G" horiz-adv-x="801" 
d="M685 349h43v0v-37h-2q-14 -131 -109 -221t-223 -90q-138 0 -236 102t-98 246q0 145 98 247.5t236 102.5q96 0 181 -56l-21 -37q-78 51 -160 51q-121 0 -207.5 -91t-86.5 -217q0 -125 87 -215.5t207 -90.5q110 0 192.5 78t96.5 191h-212v37h214z" />
    <glyph glyph-name="H" unicode="H" horiz-adv-x="617" 
d="M551 1h-42v316h-395v-316h-41v702h41v-345h395v345h42v-702z" />
    <glyph glyph-name="I" unicode="I" horiz-adv-x="171" 
d="M62 705h38v-703h-38v703z" />
    <glyph glyph-name="J" unicode="J" horiz-adv-x="541" 
d="M473 227q-5 -95 -73 -159.5t-165 -65.5h-1h-3q-102 2 -172 79l19 33q70 -68 156 -69q83 2 139.5 58t56.5 136v465h43v-467v-10z" />
    <glyph glyph-name="K" unicode="K" horiz-adv-x="568" 
d="M458 2l-267 328l-84 -93v-237h-43v703h43v-402l352 401l56 1l-294 -335l289 -366h-52z" />
    <glyph glyph-name="L" unicode="L" horiz-adv-x="480" 
d="M57 700h44v-661h322v-40h-366v701z" />
    <glyph glyph-name="M" unicode="M" horiz-adv-x="978" 
d="M750 655l-261 -599l-261 599l-128 -654h-40l135 706l55 -1l239 -548l237 548l55 1l136 -706h-40z" />
    <glyph glyph-name="N" unicode="N" horiz-adv-x="607" 
d="M540 0h-61l-370 652l2 -651h-42v698h66l363 -653v653h42v-699z" />
    <glyph glyph-name="O" unicode="O" horiz-adv-x="778" 
d="M387 702q139 0 237 -102.5t98 -247.5t-98 -248t-237 -103t-237 103t-98 248t98 247.5t237 102.5zM387 43q122 0 210 91.5t88 217.5q0 125 -88.5 216.5t-209.5 91.5t-209.5 -91.5t-88.5 -216.5q0 -126 88.5 -217.5t209.5 -91.5z" />
    <glyph glyph-name="P" unicode="P" horiz-adv-x="541" 
d="M288 221q-7 -1 -19 -2t-13 -1h-156v-219h-39v700h195q97 -1 166 -71.5t69 -168.5q0 -61 -28.5 -114t-79.5 -87l-1 -1q-40 -28 -94 -36zM100 261h151q82 0 140 58t58 140t-58 139.5t-140 57.5h-151v-395z" />
    <glyph glyph-name="Q" unicode="Q" horiz-adv-x="793" 
d="M401 699q138 0 235.5 -102t97.5 -247q0 -144 -97.5 -246t-235.5 -102q-139 0 -236.5 102t-97.5 246q0 145 97.5 247t236.5 102zM401 46q120 0 207.5 90t87.5 214q0 125 -87.5 214.5t-207.5 89.5q-121 0 -207 -89.5t-86 -214.5t86 -214.5t207 -89.5zM689 -76l25 -34
q-45 -51 -107 -51q-34 0 -64.5 18.5t-49 41t-44 42t-51.5 19.5q-46 0 -81 -42l-24 31q46 54 105 54q32 0 61 -19t48 -41.5t45.5 -41t54.5 -18.5q47 0 82 41z" />
    <glyph glyph-name="R" unicode="R" horiz-adv-x="540" 
d="M313 266q-27 -8 -60 -8l-146 -1v-259h-38v704h184q90 -1 154 -66.5t64 -155.5q0 -56 -26.5 -105.5t-73.5 -80.5l-22 -14l127 -282h-42zM107 295h142q77 0 131 54.5t54 130.5t-54 130.5t-131 54.5h-142v-370z" />
    <glyph glyph-name="S" unicode="S" horiz-adv-x="540" 
d="M288 0q-6 0 -17 0.5t-41 6t-56.5 15t-56.5 30t-49 48.5l23 30q27 -41 76 -64.5t85 -25.5l36 -3q72 0 117 46t45 116q0 36 -14 63.5t-33 42.5t-46.5 26t-48 14.5t-43.5 6.5t-27 4q-23 4 -43 9.5t-45 18t-43 29.5t-30 44.5t-12 62.5q0 75 55 128t137 53q45 0 88 -16t72 -43
l-20 -34q-57 52 -139 56q-67 0 -111 -42t-44 -102q0 -52 40 -86.5t99 -40.5q247 -25 247 -199q0 -80 -58 -136t-143 -58z" />
    <glyph glyph-name="T" unicode="T" horiz-adv-x="663" 
d="M615 700v-40h-260v-664h-39v664h-260v40h559z" />
    <glyph glyph-name="U" unicode="U" 
d="M547 248q-2 -104 -73 -175.5t-171 -71.5q-99 0 -174 73t-71 172v456h43v-457q0 -83 59 -142.5t143 -59.5q83 0 142.5 59t59.5 142v458h42v-454z" />
    <glyph glyph-name="V" unicode="V" horiz-adv-x="707" 
d="M648 700l-298 -699l-298 699h44l254 -596l256 596h42z" />
    <glyph glyph-name="W" unicode="W" horiz-adv-x="1143" 
d="M573 536l-223 -537l-293 703h40l251 -597l225 529l222 -529l253 597h40l-293 -703z" />
    <glyph glyph-name="X" unicode="X" horiz-adv-x="617" 
d="M304 322l-199 -321h-45l219 357l-218 344h47l196 -311l196 311h47l-218 -344l219 -357h-44z" />
    <glyph glyph-name="Y" unicode="Y" horiz-adv-x="620" 
d="M334 3h-44v304l-226 394h49l197 -348l194 348h50l-220 -387v-311z" />
    <glyph glyph-name="Z" unicode="Z" 
d="M557 41v-41h-466l380 663h-391v41h468l-386 -663h395z" />
    <glyph glyph-name="bracketleft" unicode="[" horiz-adv-x="244" 
d="M183 25v-31h-127v757h127v-31h-96v-695h96z" />
    <glyph glyph-name="backslash" unicode="\" horiz-adv-x="630" 
d="M85 702h50l417 -705h-45z" />
    <glyph glyph-name="bracketright" unicode="]" horiz-adv-x="302" 
d="M86 31h96v694h-96v31h127v-756h-127v31z" />
    <glyph glyph-name="asciicircum" unicode="^" horiz-adv-x="582" 
d="M460 326l-173 290l-173 -290h-48l221 375l222 -375h-49z" />
    <glyph glyph-name="underscore" unicode="_" horiz-adv-x="658" 
d="M69 36h510v-36h-510v36z" />
    <glyph glyph-name="grave" unicode="`" horiz-adv-x="278" 
d="M69 701l156 -71l-20 -42l-154 71z" />
    <glyph glyph-name="a" unicode="a" horiz-adv-x="564" 
d="M524 0h-43v98l-52 -43q-66 -55 -152 -55q-100 0 -170.5 73t-70.5 176t70.5 176t170.5 73q86 0 152 -55l52 -43v99h43v-499zM476 222v50v4q-10 79 -66 128.5t-133 49.5q-85 0 -142 -59t-57 -146t57 -145.5t142 -58.5q77 0 132.5 49.5t66.5 127.5z" />
    <glyph glyph-name="b" unicode="b" horiz-adv-x="579" 
d="M293 485q97 0 166 -71t69 -171t-69 -171t-166 -71q-82 0 -148 54l-50 42v-96h-39v752h39v-364l50 42q66 54 148 54zM293 44q82 0 138 57.5t56 141.5t-55.5 140t-138.5 56q-76 0 -130.5 -47t-64.5 -123v-52q10 -76 65 -124.5t130 -48.5z" />
    <glyph glyph-name="c" unicode="c" horiz-adv-x="463" 
d="M289 505q72 0 133 -38l-19 -38q-51 33 -114 33q-87 0 -148.5 -61.5t-61.5 -148.5q0 -86 61.5 -148t148.5 -62q63 0 115 35l18 -39q-61 -38 -133 -38q-104 0 -178 74t-74 178q0 105 74 179t178 74z" />
    <glyph glyph-name="d" unicode="d" horiz-adv-x="555" 
d="M274 485q82 0 148 -54l50 -42v364h39v-752h-39v96l-50 -42q-66 -54 -148 -54q-97 0 -166 71t-69 171t69 171t166 71zM274 44q75 0 130 48.5t65 124.5v52q-10 76 -64.5 123t-130.5 47q-83 0 -138.5 -56t-55.5 -140t56 -141.5t138 -57.5z" />
    <glyph glyph-name="e" unicode="e" horiz-adv-x="579" 
d="M287 507q103 0 173 -78.5t72 -193.5h-454q13 -93 73.5 -144.5t135.5 -51.5q53 0 108 31l60 -1q-71 -68 -168 -68q-101 0 -173 74t-72 179q0 104 72 178.5t173 74.5zM79 273h413q-19 94 -76 145.5t-129 51.5q-76 0 -135 -49.5t-73 -147.5z" />
    <glyph glyph-name="f" unicode="f" horiz-adv-x="380" 
d="M341 346v-34h-175v-312h-37v312h-82v34h82v156q0 95 60.5 166t151.5 83v-38q-72 -11 -123.5 -67t-51.5 -143v-157h175z" />
    <glyph glyph-name="g" unicode="g" horiz-adv-x="556" 
d="M518 -25q0 -126 -91 -200q-67 -52 -150 -52q-56 0 -107 25t-85 71l14 24v-1l7 13q29 -43 74.5 -68t96.5 -25q71 0 134 55.5t68 127.5v79l-1 78l-53 -44l-1 -1q-68 -54 -152 -54q-79 0 -145 49q-41 30 -66 75q-34 60 -34 128q0 105 72 179t173 74q87 0 154 -56l53 -44v100
h39v-533zM478 228v55q-10 79 -69 132t-137 53q-86 0 -147 -62.5t-61 -150.5q0 -32 11 -67q18 -60 68 -100q57 -46 129 -46q74 0 135 51q46 40 65 103q4 16 6 32z" />
    <glyph glyph-name="h" unicode="h" horiz-adv-x="537" 
d="M267 463q-63 0 -114 -40.5t-70 -105.5v-317h-41v752h41v-356q25 35 50 55q62 49 134 49q58 0 107.5 -30.5t80.5 -83.5q29 -50 34 -107q0 -204 -1 -278h-38v291q-6 67 -62.5 119t-120.5 52z" />
    <glyph glyph-name="i" unicode="i" horiz-adv-x="148" 
d="M46 500h40v-502h-40v502zM69 654q-9 0 -16 6.5t-7 15.5q0 10 7 16.5t16 6.5q10 0 16.5 -6.5t6.5 -16.5q0 -9 -6.5 -15.5t-16.5 -6.5z" />
    <glyph glyph-name="j" unicode="j" horiz-adv-x="326" 
d="M51 -251h-2v43q81 1 136 55.5t55 132.5v521h43v-523q-4 -99 -70.5 -163t-161.5 -66zM282 677q0 -8 -6.5 -14t-15.5 -6q-8 0 -14 6t-6 14q0 9 6 15t14 6q9 0 15.5 -6t6.5 -15z" />
    <glyph glyph-name="k" unicode="k" horiz-adv-x="524" 
d="M398 501l-180 -212l230 -289h-42l-212 259l-84 -102v-157h-41v749h41v-526l233 277z" />
    <glyph glyph-name="l" unicode="l" horiz-adv-x="181" 
d="M61 753h43v-752h-43v752z" />
    <glyph glyph-name="m" unicode="m" horiz-adv-x="1012" 
d="M725 454q-69 0 -123 -44t-73 -117v-294h-40v299q-22 72 -74.5 114t-120.5 42q-62 0 -112.5 -36t-75.5 -101l-1 -318h-42v500h42v-104q19 30 53 54q66 47 136 47q56 0 105 -27t83 -76l27 -39l27 39q72 103 189 103q92 0 158.5 -69t74.5 -164q1 -19 -1 -264h-39l1 278
q-10 75 -68 126t-126 51z" />
    <glyph glyph-name="n" unicode="n" horiz-adv-x="541" 
d="M267 464q-63 0 -114.5 -41t-70.5 -106l1 -317h-38v498h38v-102q25 35 50 55q62 49 134 49q58 0 107.5 -30.5t80.5 -83.5q29 -50 34 -107q0 -204 -1 -278h-36l-1 291q-6 67 -63 119.5t-121 52.5z" />
    <glyph glyph-name="o" unicode="o" horiz-adv-x="587" 
d="M294 507q101 0 173.5 -74.5t72.5 -179.5t-72.5 -179.5t-173.5 -74.5q-102 0 -174.5 74.5t-72.5 179.5t72.5 179.5t174.5 74.5zM294 39q86 0 147.5 63t61.5 151t-61.5 151t-147.5 63q-87 0 -148.5 -62.5t-61.5 -151.5t61.5 -151.5t148.5 -62.5z" />
    <glyph glyph-name="p" unicode="p" horiz-adv-x="563" 
d="M293 8q-82 0 -148 54l-50 42v-364h-39v752h39v-96l50 42q66 54 148 54q97 0 166 -71t69 -171t-69 -171t-166 -71zM293 449q-75 0 -130 -48.5t-65 -124.5v-52q10 -76 64.5 -123t130.5 -47q83 0 138.5 56t55.5 140t-56 141.5t-138 57.5z" />
    <glyph glyph-name="q" unicode="q" horiz-adv-x="565" 
d="M291 10q-97 0 -166 71t-69 171t69 171t166 71q82 0 148 -54l50 -42v96h39v-752h-39v364l-50 -42q-66 -54 -148 -54zM291 451q-82 0 -138 -57.5t-56 -141.5t55.5 -140t138.5 -56q76 0 130.5 47t64.5 123v52q-10 76 -65 124.5t-130 48.5z" />
    <glyph glyph-name="r" unicode="r" horiz-adv-x="316" 
d="M265 502v-36q-66 -6 -114.5 -56.5t-62.5 -120.5v-289h-34v502h34v-117q21 35 52 64q49 45 125 53z" />
    <glyph glyph-name="s" unicode="s" horiz-adv-x="397" 
d="M213 1q-51 0 -95.5 17t-67.5 45l17 29q60 -55 146 -56q49 1 79 30.5t30 76.5q0 29 -12.5 50.5t-31.5 32t-35.5 15t-31.5 5.5q-40 2 -73.5 12.5t-61.5 40t-28 74.5q0 55 40 94t100 39q73 0 119 -46l-19 -34q-41 40 -99 43q-42 0 -73 -26t-31 -70q0 -46 32.5 -67.5
t80.5 -24.5q63 -3 112 -40t49 -98q0 -60 -42.5 -101t-103.5 -41z" />
    <glyph glyph-name="t" unicode="t" horiz-adv-x="414" 
d="M348 462v-41h-124v-422h-40v422h-125v41h125v241h39l1 -241h124z" />
    <glyph glyph-name="u" unicode="u" horiz-adv-x="575" 
d="M84 122q-32 55 -36 116q-1 9 1 263h38v-269q7 -78 67.5 -134t130.5 -56q69 0 125.5 47.5t71.5 123.5v288h38v-500h-38v107q-28 -34 -54 -55q-65 -52 -143 -52q-62 0 -115 32t-86 89z" />
    <glyph glyph-name="v" unicode="v" horiz-adv-x="508" 
d="M427 504h-3h43l-217 -504l-217 504h41l176 -401z" />
    <glyph glyph-name="w" unicode="w" horiz-adv-x="826" 
d="M571 -1l-158 381l-159 -381l-208 504h35l174 -411l158 373l158 -373l175 411h34z" />
    <glyph glyph-name="x" unicode="x" horiz-adv-x="437" 
d="M342 -1l-128 222l-127 -222h-40l147 258l-143 247h44l119 -210l119 210h45l-143 -247l147 -258h-40z" />
    <glyph glyph-name="y" unicode="y" horiz-adv-x="538" 
d="M484 500l-189 -441l-134 -312h-45l126 293l-200 460h45l176 -401l177 401h44z" />
    <glyph glyph-name="z" unicode="z" horiz-adv-x="446" 
d="M406 38v-38h-346l262 464h-276v38h347l-267 -464h280z" />
    <glyph glyph-name="braceleft" unicode="{" horiz-adv-x="386" 
d="M187 179v21q-8 50 -41.5 86.5t-79.5 44.5v36q46 8 79 44.5t40 85.5l2 22q0 70 41.5 123t103.5 62v-26q-45 -8 -79 -46.5t-42 -90.5v-22q0 -97 -72 -153l-22 -17l22 -17q72 -56 72 -153v-22q8 -52 42 -90.5t79 -46.5v-26q-62 9 -103.5 61.5t-41.5 123.5z" />
    <glyph glyph-name="bar" unicode="|" horiz-adv-x="143" 
d="M55 749h31v-751h-31v751z" />
    <glyph glyph-name="braceright" unicode="}" horiz-adv-x="394" 
d="M211 200v-21q0 -71 -41.5 -123.5t-103.5 -61.5v26q45 8 79 46.5t42 90.5v22q0 97 72 153l22 17l-22 17q-72 56 -72 153v22q-8 52 -42 90.5t-79 46.5v26q62 -9 103.5 -62t41.5 -123l2 -22q7 -49 40 -85.5t79 -44.5v-36q-46 -8 -79.5 -44.5t-41.5 -86.5z" />
    <glyph glyph-name="asciitilde" unicode="~" horiz-adv-x="494" 
d="M451 289q-47 -39 -104 -39q-54 0 -97 34l-13 11q-40 40 -92 40q-45 0 -80 -29l-23 23q44 38 103 38q55 0 98 -34l12 -10q38 -40 92 -40q46 0 80 28z" />
    <glyph glyph-name="cent" unicode="&#xa2;" horiz-adv-x="463" 
d="M391 80l16 -38q-49 -30 -103 -36l-28 -3v-76h-40v80l-23 6q-79 23 -129 88.5t-50 147.5t50 148t129 88l23 5v73h40v-70l28 -1q53 -3 103 -35l-18 -37q-35 25 -78 31q-62 9 -120 -17q-52 -25 -83.5 -75.5t-31.5 -109.5t31.5 -108.5t83.5 -74.5q43 -20 87 -20q16 0 33 3
q39 6 80 31z" />
    <glyph glyph-name="sterling" unicode="&#xa3;" horiz-adv-x="632" 
d="M179 39q-59 0 -105 -37l-30 21q36 33 88 46l22 4v246h-73v31h73v132q0 91 63 156.5t151 65.5h1q84 0 146.5 -54t73.5 -133h-35q-11 66 -62.5 109t-122.5 43q-69 0 -123 -50t-58 -118l1 -151h155v-31h-155v-244l20 -4q55 -9 98 -42l16 -14q52 -52 121 -52q60 0 104 38
l31 -22q-59 -51 -135 -51q-73 0 -127 45l-17 13q-51 53 -121 53z" />
    <glyph glyph-name="yen" unicode="&#xa5;" horiz-adv-x="613" 
d="M325 307v-7h193v-31h-193v-68h193v-31h-193v-171h-44v171h-210v31h210v68h-210v31h210v7l-228 395h46l204 -361l200 361h44z" />
    <glyph glyph-name="dieresis" unicode="&#xa8;" horiz-adv-x="399" 
d="M110 700q8 0 13.5 -5.5t5.5 -13.5q0 -19 -19 -19q-8 0 -13.5 5.5t-5.5 13.5q0 7 5.5 13t13.5 6zM281 700q8 0 13.5 -5.5t5.5 -13.5q0 -19 -19 -19q-8 0 -13.5 5.5t-5.5 13.5q0 7 6 13t13 6z" />
    <glyph glyph-name="acute" unicode="&#xb4;" horiz-adv-x="281" 
d="M51 637l156 71l18 -42l-154 -71z" />
    <glyph glyph-name="questiondown" unicode="&#xbf;" horiz-adv-x="480" 
d="M40 211q0 75 46 133l141 129v47h43v-48l-161 -154q-36 -50 -36 -107q0 -73 50.5 -124.5t121.5 -51.5q64 0 112.5 43t57.5 107h33q-9 -79 -67 -132t-136 -53q-85 0 -145 62t-60 149zM217 669q0 14 10 24t24 10t24.5 -10t10.5 -24t-10.5 -24.5t-24.5 -10.5t-24 10.5
t-10 24.5z" />
    <glyph glyph-name="Agrave" unicode="&#xc0;" horiz-adv-x="697" 
d="M521 166h-356l-67 -166h-50l296 703l298 -703h-51zM344 590l-163 -385h325zM279 901l156 -71l-20 -42l-154 71z" />
    <glyph glyph-name="Aacute" unicode="&#xc1;" horiz-adv-x="697" 
d="M521 166h-356l-67 -166h-50l296 703l298 -703h-51zM344 590l-163 -385h325zM261 837l156 71l18 -42l-154 -71z" />
    <glyph glyph-name="Acircumflex" unicode="&#xc2;" horiz-adv-x="697" 
d="M521 166h-356l-67 -166h-50l296 703l298 -703h-51zM344 590l-163 -385h325zM200 842l146 69l150 -70l-16 -35l-133 62l-130 -61z" />
    <glyph glyph-name="Atilde" unicode="&#xc3;" horiz-adv-x="697" 
d="M521 166h-356l-67 -166h-50l296 703l298 -703h-51zM344 590l-163 -385h325zM335 828q-31 33 -75 33q-39 0 -69 -28l-30 30q43 41 99 41q49 0 88 -31q46 -43 88 -43q40 0 69 27l30 -30q-41 -39 -99 -39q-49 0 -101 40z" />
    <glyph glyph-name="Adieresis" unicode="&#xc4;" horiz-adv-x="697" 
d="M521 166h-356l-67 -166h-50l296 703l298 -703h-51zM344 590l-163 -385h325zM263 900q8 0 13.5 -5.5t5.5 -13.5q0 -19 -19 -19q-8 0 -13.5 5.5t-5.5 13.5q0 7 6 13t13 6zM434 900q8 0 13.5 -5.5t5.5 -13.5q0 -19 -19 -19q-8 0 -13.5 5.5t-5.5 13.5q0 7 5.5 13t13.5 6z" />
    <glyph glyph-name="Ccedilla" unicode="&#xc7;" horiz-adv-x="657" 
d="M364 -16q38 -1 61 -23t23 -53q0 -32 -22 -54t-54 -22q-25 0 -49 18l16 35q20 -16 33 -16q16 0 27.5 11.5t11.5 27.5t-11.5 27t-27.5 11q-13 0 -33 -16l-18 38l9 38q-120 27 -198.5 123.5t-78.5 221.5q0 146 104 249.5t250 103.5q99 0 181 -50l-21 -44q-74 46 -160 46
q-126 0 -215.5 -89.5t-89.5 -215.5q0 -127 89.5 -216.5t215.5 -89.5q87 0 162 47l20 -45q-83 -50 -182 -50q-14 0 -40 2z" />
    <glyph glyph-name="Egrave" unicode="&#xc8;" horiz-adv-x="520" 
d="M459 659h-358v-300h273v-39h-273v-281h349v-40h-389v698h398v-38zM191 901l156 -71l-20 -42l-154 71z" />
    <glyph glyph-name="Eacute" unicode="&#xc9;" horiz-adv-x="520" 
d="M459 659h-358v-300h273v-39h-273v-281h349v-40h-389v698h398v-38zM173 837l156 71l18 -42l-154 -71z" />
    <glyph glyph-name="Ecircumflex" unicode="&#xca;" horiz-adv-x="520" 
d="M459 659h-358v-300h273v-39h-273v-281h349v-40h-389v698h398v-38zM112 842l146 69l150 -70l-16 -35l-133 62l-130 -61z" />
    <glyph glyph-name="Edieresis" unicode="&#xcb;" horiz-adv-x="520" 
d="M459 659h-358v-300h273v-39h-273v-281h349v-40h-389v698h398v-38zM174 900q8 0 13.5 -5.5t5.5 -13.5q0 -19 -19 -19q-8 0 -13.5 5.5t-5.5 13.5q0 7 5.5 13t13.5 6zM345 900q8 0 13.5 -5.5t5.5 -13.5q0 -19 -19 -19q-8 0 -13.5 5.5t-5.5 13.5q0 7 6 13t13 6z" />
    <glyph glyph-name="Igrave" unicode="&#xcc;" horiz-adv-x="171" 
d="M62 705h38v-703h-38v703zM17 901l156 -71l-20 -42l-154 71z" />
    <glyph glyph-name="Iacute" unicode="&#xcd;" horiz-adv-x="171" 
d="M62 705h38v-703h-38v703zM-1 837l156 71l18 -42l-154 -71z" />
    <glyph glyph-name="Icircumflex" unicode="&#xce;" horiz-adv-x="171" 
d="M62 705h38v-703h-38v703zM-62 842l146 69l150 -70l-16 -35l-133 62l-130 -61z" />
    <glyph glyph-name="Idieresis" unicode="&#xcf;" horiz-adv-x="171" 
d="M62 705h38v-703h-38v703zM0 900q8 0 13.5 -5.5t5.5 -13.5q0 -19 -19 -19q-8 0 -13.5 5.5t-5.5 13.5q0 7 5.5 13t13.5 6zM171 900q8 0 13.5 -5.5t5.5 -13.5q0 -19 -19 -19q-8 0 -13.5 5.5t-5.5 13.5q0 7 6 13t13 6z" />
    <glyph glyph-name="Ntilde" unicode="&#xd1;" horiz-adv-x="607" 
d="M540 0h-61l-370 652l2 -651h-42v698h66l363 -653v653h42v-699zM290 828q-31 33 -75 33q-39 0 -69 -28l-30 30q43 41 99 41q49 0 88 -31q46 -43 88 -43q41 0 69 27l30 -30q-40 -39 -99 -39q-49 0 -101 40z" />
    <glyph glyph-name="Ograve" unicode="&#xd2;" horiz-adv-x="778" 
d="M387 702q139 0 237 -102.5t98 -247.5t-98 -248t-237 -103t-237 103t-98 248t98 247.5t237 102.5zM387 43q122 0 210 91.5t88 217.5q0 125 -88.5 216.5t-209.5 91.5t-209.5 -91.5t-88.5 -216.5q0 -126 88.5 -217.5t209.5 -91.5zM320 901l156 -71l-20 -42l-154 71z" />
    <glyph glyph-name="Oacute" unicode="&#xd3;" horiz-adv-x="778" 
d="M387 702q139 0 237 -102.5t98 -247.5t-98 -248t-237 -103t-237 103t-98 248t98 247.5t237 102.5zM387 43q122 0 210 91.5t88 217.5q0 125 -88.5 216.5t-209.5 91.5t-209.5 -91.5t-88.5 -216.5q0 -126 88.5 -217.5t209.5 -91.5zM302 837l156 71l18 -42l-154 -71z" />
    <glyph glyph-name="Ocircumflex" unicode="&#xd4;" horiz-adv-x="778" 
d="M387 702q139 0 237 -102.5t98 -247.5t-98 -248t-237 -103t-237 103t-98 248t98 247.5t237 102.5zM387 43q122 0 210 91.5t88 217.5q0 125 -88.5 216.5t-209.5 91.5t-209.5 -91.5t-88.5 -216.5q0 -126 88.5 -217.5t209.5 -91.5zM241 842l146 69l150 -70l-16 -35l-133 62
l-130 -61z" />
    <glyph glyph-name="Otilde" unicode="&#xd5;" horiz-adv-x="778" 
d="M387 702q139 0 237 -102.5t98 -247.5t-98 -248t-237 -103t-237 103t-98 248t98 247.5t237 102.5zM387 43q122 0 210 91.5t88 217.5q0 125 -88.5 216.5t-209.5 91.5t-209.5 -91.5t-88.5 -216.5q0 -126 88.5 -217.5t209.5 -91.5zM376 828q-31 33 -75 33q-39 0 -69 -28
l-30 30q43 41 99 41q49 0 88 -31q46 -43 88 -43q41 0 69 27l30 -30q-40 -39 -99 -39q-49 0 -101 40z" />
    <glyph glyph-name="Odieresis" unicode="&#xd6;" horiz-adv-x="778" 
d="M387 702q139 0 237 -102.5t98 -247.5t-98 -248t-237 -103t-237 103t-98 248t98 247.5t237 102.5zM387 43q122 0 210 91.5t88 217.5q0 125 -88.5 216.5t-209.5 91.5t-209.5 -91.5t-88.5 -216.5q0 -126 88.5 -217.5t209.5 -91.5zM303 900q8 0 13.5 -5.5t5.5 -13.5
q0 -19 -19 -19q-8 0 -13.5 5.5t-5.5 13.5q0 7 6 13t13 6zM474 900q8 0 13.5 -5.5t5.5 -13.5q0 -19 -19 -19q-8 0 -13.5 5.5t-5.5 13.5q0 7 5.5 13t13.5 6z" />
    <glyph glyph-name="Ugrave" unicode="&#xd9;" 
d="M547 248q-2 -104 -73 -175.5t-171 -71.5q-99 0 -174 73t-71 172v456h43v-457q0 -83 59 -142.5t143 -59.5q83 0 142.5 59t59.5 142v458h42v-454zM235 901l156 -71l-20 -42l-154 71z" />
    <glyph glyph-name="Uacute" unicode="&#xda;" 
d="M547 248q-2 -104 -73 -175.5t-171 -71.5q-99 0 -174 73t-71 172v456h43v-457q0 -83 59 -142.5t143 -59.5q83 0 142.5 59t59.5 142v458h42v-454zM217 837l156 71l18 -42l-154 -71z" />
    <glyph glyph-name="Ucircumflex" unicode="&#xdb;" 
d="M547 248q-2 -104 -73 -175.5t-171 -71.5q-99 0 -174 73t-71 172v456h43v-457q0 -83 59 -142.5t143 -59.5q83 0 142.5 59t59.5 142v458h42v-454zM156 842l146 69l150 -70l-16 -35l-133 62l-130 -61z" />
    <glyph glyph-name="Udieresis" unicode="&#xdc;" 
d="M547 248q-2 -104 -73 -175.5t-171 -71.5q-99 0 -174 73t-71 172v456h43v-457q0 -83 59 -142.5t143 -59.5q83 0 142.5 59t59.5 142v458h42v-454zM218 900q8 0 13.5 -5.5t5.5 -13.5q0 -19 -19 -19q-8 0 -13.5 5.5t-5.5 13.5q0 7 5.5 13t13.5 6zM389 900q8 0 13.5 -5.5
t5.5 -13.5q0 -19 -19 -19q-8 0 -13.5 5.5t-5.5 13.5q0 7 6 13t13 6z" />
    <glyph glyph-name="Yacute" unicode="&#xdd;" horiz-adv-x="620" 
d="M334 3h-44v304l-226 394h49l197 -348l194 348h50l-220 -387v-311zM223 837l156 71l18 -42l-154 -71z" />
    <glyph glyph-name="agrave" unicode="&#xe0;" horiz-adv-x="564" 
d="M524 0h-43v98l-52 -43q-66 -55 -152 -55q-100 0 -170.5 73t-70.5 176t70.5 176t170.5 73q86 0 152 -55l52 -43v99h43v-499zM476 222v50v4q-10 79 -66 128.5t-133 49.5q-85 0 -142 -59t-57 -146t57 -145.5t142 -58.5q77 0 132.5 49.5t66.5 127.5zM213 701l156 -71l-20 -42
l-154 71z" />
    <glyph glyph-name="aacute" unicode="&#xe1;" horiz-adv-x="564" 
d="M524 0h-43v98l-52 -43q-66 -55 -152 -55q-100 0 -170.5 73t-70.5 176t70.5 176t170.5 73q86 0 152 -55l52 -43v99h43v-499zM476 222v50v4q-10 79 -66 128.5t-133 49.5q-85 0 -142 -59t-57 -146t57 -145.5t142 -58.5q77 0 132.5 49.5t66.5 127.5zM195 637l156 71l18 -42
l-154 -71z" />
    <glyph glyph-name="acircumflex" unicode="&#xe2;" horiz-adv-x="564" 
d="M524 0h-43v98l-52 -43q-66 -55 -152 -55q-100 0 -170.5 73t-70.5 176t70.5 176t170.5 73q86 0 152 -55l52 -43v99h43v-499zM476 222v50v4q-10 79 -66 128.5t-133 49.5q-85 0 -142 -59t-57 -146t57 -145.5t142 -58.5q77 0 132.5 49.5t66.5 127.5zM134 642l146 69l150 -70
l-16 -35l-133 62l-130 -61z" />
    <glyph glyph-name="atilde" unicode="&#xe3;" horiz-adv-x="564" 
d="M524 0h-43v98l-52 -43q-66 -55 -152 -55q-100 0 -170.5 73t-70.5 176t70.5 176t170.5 73q86 0 152 -55l52 -43v99h43v-499zM476 222v50v4q-10 79 -66 128.5t-133 49.5q-85 0 -142 -59t-57 -146t57 -145.5t142 -58.5q77 0 132.5 49.5t66.5 127.5zM269 628q-31 33 -75 33
q-39 0 -69 -28l-30 30q43 41 99 41q49 0 88 -31q46 -43 88 -43q40 0 69 27l30 -30q-41 -39 -99 -39q-49 0 -101 40z" />
    <glyph glyph-name="adieresis" unicode="&#xe4;" horiz-adv-x="564" 
d="M524 0h-43v98l-52 -43q-66 -55 -152 -55q-100 0 -170.5 73t-70.5 176t70.5 176t170.5 73q86 0 152 -55l52 -43v99h43v-499zM476 222v50v4q-10 79 -66 128.5t-133 49.5q-85 0 -142 -59t-57 -146t57 -145.5t142 -58.5q77 0 132.5 49.5t66.5 127.5zM196 700q8 0 13.5 -5.5
t5.5 -13.5q0 -19 -19 -19q-8 0 -13.5 5.5t-5.5 13.5q0 7 5.5 13t13.5 6zM367 700q8 0 13.5 -5.5t5.5 -13.5q0 -19 -19 -19q-8 0 -13.5 5.5t-5.5 13.5q0 7 6 13t13 6z" />
    <glyph glyph-name="ccedilla" unicode="&#xe7;" horiz-adv-x="463" 
d="M258 -172q-26 0 -52 22l17 34q21 -17 35 -17q16 0 28 11.5t12 28.5t-12 28.5t-28 11.5q-14 0 -35 -17l-19 41l9 39q-80 23 -130.5 90t-50.5 152q0 104 73.5 178t177.5 74q72 0 132 -37l-17 -39q-54 34 -115 34q-86 0 -148 -61.5t-62 -148.5t61.5 -148t148.5 -61
q62 0 116 34l17 -39q-61 -38 -133 -38q-11 0 -31 2l-3 -15q40 -1 64 -24t24 -56t-23.5 -56t-55.5 -23z" />
    <glyph glyph-name="egrave" unicode="&#xe8;" horiz-adv-x="579" 
d="M287 507q103 0 173 -78.5t72 -193.5h-454q13 -93 73.5 -144.5t135.5 -51.5q53 0 108 31l60 -1q-71 -68 -168 -68q-101 0 -173 74t-72 179q0 104 72 178.5t173 74.5zM79 273h413q-19 94 -76 145.5t-129 51.5q-76 0 -135 -49.5t-73 -147.5zM220 701l156 -71l-20 -42
l-154 71z" />
    <glyph glyph-name="eacute" unicode="&#xe9;" horiz-adv-x="579" 
d="M287 507q103 0 173 -78.5t72 -193.5h-454q13 -93 73.5 -144.5t135.5 -51.5q53 0 108 31l60 -1q-71 -68 -168 -68q-101 0 -173 74t-72 179q0 104 72 178.5t173 74.5zM79 273h413q-19 94 -76 145.5t-129 51.5q-76 0 -135 -49.5t-73 -147.5zM202 637l156 71l18 -42l-154 -71
z" />
    <glyph glyph-name="ecircumflex" unicode="&#xea;" horiz-adv-x="579" 
d="M287 507q103 0 173 -78.5t72 -193.5h-454q13 -93 73.5 -144.5t135.5 -51.5q53 0 108 31l60 -1q-71 -68 -168 -68q-101 0 -173 74t-72 179q0 104 72 178.5t173 74.5zM79 273h413q-19 94 -76 145.5t-129 51.5q-76 0 -135 -49.5t-73 -147.5zM141 642l146 69l150 -70l-16 -35
l-133 62l-130 -61z" />
    <glyph glyph-name="edieresis" unicode="&#xeb;" horiz-adv-x="579" 
d="M287 507q103 0 173 -78.5t72 -193.5h-454q13 -93 73.5 -144.5t135.5 -51.5q53 0 108 31l60 -1q-71 -68 -168 -68q-101 0 -173 74t-72 179q0 104 72 178.5t173 74.5zM79 273h413q-19 94 -76 145.5t-129 51.5q-76 0 -135 -49.5t-73 -147.5zM204 700q8 0 13.5 -5.5
t5.5 -13.5q0 -19 -19 -19q-8 0 -13.5 5.5t-5.5 13.5q0 7 5.5 13t13.5 6zM375 700q8 0 13.5 -5.5t5.5 -13.5q0 -19 -19 -19q-8 0 -13.5 5.5t-5.5 13.5q0 7 6 13t13 6z" />
    <glyph glyph-name="igrave" unicode="&#xec;" horiz-adv-x="148" 
d="M46 500h40v-502h-40v502zM69 654q-9 0 -16 6.5t-7 15.5q0 10 7 16.5t16 6.5q10 0 16.5 -6.5t6.5 -16.5q0 -9 -6.5 -15.5t-16.5 -6.5zM5 701l156 -71l-20 -42l-154 71z" />
    <glyph glyph-name="iacute" unicode="&#xed;" horiz-adv-x="148" 
d="M46 500h40v-502h-40v502zM69 654q-9 0 -16 6.5t-7 15.5q0 10 7 16.5t16 6.5q10 0 16.5 -6.5t6.5 -16.5q0 -9 -6.5 -15.5t-16.5 -6.5zM-13 637l156 71l18 -42l-154 -71z" />
    <glyph glyph-name="icircumflex" unicode="&#xee;" horiz-adv-x="148" 
d="M46 500h40v-502h-40v502zM69 654q-9 0 -16 6.5t-7 15.5q0 10 7 16.5t16 6.5q10 0 16.5 -6.5t6.5 -16.5q0 -9 -6.5 -15.5t-16.5 -6.5zM-74 642l146 69l150 -70l-16 -35l-133 62l-130 -61z" />
    <glyph glyph-name="idieresis" unicode="&#xef;" horiz-adv-x="148" 
d="M46 500h40v-502h-40v502zM69 654q-9 0 -16 6.5t-7 15.5q0 10 7 16.5t16 6.5q10 0 16.5 -6.5t6.5 -16.5q0 -9 -6.5 -15.5t-16.5 -6.5zM-11 700q8 0 13.5 -5.5t5.5 -13.5q0 -19 -19 -19q-8 0 -13.5 5.5t-5.5 13.5q0 7 6 13t13 6zM160 700q8 0 13.5 -5.5t5.5 -13.5
q0 -19 -19 -19q-8 0 -13.5 5.5t-5.5 13.5q0 7 5.5 13t13.5 6z" />
    <glyph glyph-name="ntilde" unicode="&#xf1;" horiz-adv-x="541" 
d="M267 464q-63 0 -114.5 -41t-70.5 -106l1 -317h-38v498h38v-102q25 35 50 55q62 49 134 49q58 0 107.5 -30.5t80.5 -83.5q29 -50 34 -107q0 -204 -1 -278h-36l-1 291q-6 67 -63 119.5t-121 52.5zM257 628q-31 33 -75 33q-39 0 -69 -28l-30 30q43 41 99 41q49 0 88 -31
q46 -43 88 -43q40 0 69 27l30 -30q-41 -39 -99 -39q-49 0 -101 40z" />
    <glyph glyph-name="ograve" unicode="&#xf2;" horiz-adv-x="587" 
d="M294 507q101 0 173.5 -74.5t72.5 -179.5t-72.5 -179.5t-173.5 -74.5q-102 0 -174.5 74.5t-72.5 179.5t72.5 179.5t174.5 74.5zM294 39q86 0 147.5 63t61.5 151t-61.5 151t-147.5 63q-87 0 -148.5 -62.5t-61.5 -151.5t61.5 -151.5t148.5 -62.5zM224 701l156 -71l-20 -42
l-154 71z" />
    <glyph glyph-name="oacute" unicode="&#xf3;" horiz-adv-x="587" 
d="M294 507q101 0 173.5 -74.5t72.5 -179.5t-72.5 -179.5t-173.5 -74.5q-102 0 -174.5 74.5t-72.5 179.5t72.5 179.5t174.5 74.5zM294 39q86 0 147.5 63t61.5 151t-61.5 151t-147.5 63q-87 0 -148.5 -62.5t-61.5 -151.5t61.5 -151.5t148.5 -62.5zM206 637l156 71l18 -42
l-154 -71z" />
    <glyph glyph-name="ocircumflex" unicode="&#xf4;" horiz-adv-x="587" 
d="M294 507q101 0 173.5 -74.5t72.5 -179.5t-72.5 -179.5t-173.5 -74.5q-102 0 -174.5 74.5t-72.5 179.5t72.5 179.5t174.5 74.5zM294 39q86 0 147.5 63t61.5 151t-61.5 151t-147.5 63q-87 0 -148.5 -62.5t-61.5 -151.5t61.5 -151.5t148.5 -62.5zM145 642l146 69l150 -70
l-16 -35l-133 62l-130 -61z" />
    <glyph glyph-name="otilde" unicode="&#xf5;" horiz-adv-x="587" 
d="M294 507q101 0 173.5 -74.5t72.5 -179.5t-72.5 -179.5t-173.5 -74.5q-102 0 -174.5 74.5t-72.5 179.5t72.5 179.5t174.5 74.5zM294 39q86 0 147.5 63t61.5 151t-61.5 151t-147.5 63q-87 0 -148.5 -62.5t-61.5 -151.5t61.5 -151.5t148.5 -62.5zM280 628q-31 33 -75 33
q-39 0 -69 -28l-30 30q43 41 99 41q49 0 88 -31q46 -43 88 -43q41 0 69 27l30 -30q-40 -39 -99 -39q-49 0 -101 40z" />
    <glyph glyph-name="odieresis" unicode="&#xf6;" horiz-adv-x="587" 
d="M294 507q101 0 173.5 -74.5t72.5 -179.5t-72.5 -179.5t-173.5 -74.5q-102 0 -174.5 74.5t-72.5 179.5t72.5 179.5t174.5 74.5zM294 39q86 0 147.5 63t61.5 151t-61.5 151t-147.5 63q-87 0 -148.5 -62.5t-61.5 -151.5t61.5 -151.5t148.5 -62.5zM208 700q8 0 13.5 -5.5
t5.5 -13.5q0 -19 -19 -19q-8 0 -13.5 5.5t-5.5 13.5q0 7 5.5 13t13.5 6zM379 700q8 0 13.5 -5.5t5.5 -13.5q0 -19 -19 -19q-8 0 -13.5 5.5t-5.5 13.5q0 7 6 13t13 6z" />
    <glyph glyph-name="ugrave" unicode="&#xf9;" horiz-adv-x="575" 
d="M84 122q-32 55 -36 116q-1 9 1 263h38v-269q7 -78 67.5 -134t130.5 -56q69 0 125.5 47.5t71.5 123.5v288h38v-500h-38v107q-28 -34 -54 -55q-65 -52 -143 -52q-62 0 -115 32t-86 89zM218 701l156 -71l-20 -42l-154 71z" />
    <glyph glyph-name="uacute" unicode="&#xfa;" horiz-adv-x="575" 
d="M84 122q-32 55 -36 116q-1 9 1 263h38v-269q7 -78 67.5 -134t130.5 -56q69 0 125.5 47.5t71.5 123.5v288h38v-500h-38v107q-28 -34 -54 -55q-65 -52 -143 -52q-62 0 -115 32t-86 89zM200 637l156 71l18 -42l-154 -71z" />
    <glyph glyph-name="ucircumflex" unicode="&#xfb;" horiz-adv-x="575" 
d="M84 122q-32 55 -36 116q-1 9 1 263h38v-269q7 -78 67.5 -134t130.5 -56q69 0 125.5 47.5t71.5 123.5v288h38v-500h-38v107q-28 -34 -54 -55q-65 -52 -143 -52q-62 0 -115 32t-86 89zM139 642l146 69l150 -70l-16 -35l-133 62l-130 -61z" />
    <glyph glyph-name="udieresis" unicode="&#xfc;" horiz-adv-x="575" 
d="M84 122q-32 55 -36 116q-1 9 1 263h38v-269q7 -78 67.5 -134t130.5 -56q69 0 125.5 47.5t71.5 123.5v288h38v-500h-38v107q-28 -34 -54 -55q-65 -52 -143 -52q-62 0 -115 32t-86 89zM202 700q8 0 13.5 -5.5t5.5 -13.5q0 -19 -19 -19q-8 0 -13.5 5.5t-5.5 13.5q0 7 5.5 13
t13.5 6zM373 700q8 0 13.5 -5.5t5.5 -13.5q0 -19 -19 -19q-8 0 -13.5 5.5t-5.5 13.5q0 7 6 13t13 6z" />
    <glyph glyph-name="yacute" unicode="&#xfd;" horiz-adv-x="538" 
d="M484 500l-189 -441l-134 -312h-45l126 293l-200 460h45l176 -401l177 401h44zM182 637l156 71l18 -42l-154 -71z" />
    <glyph glyph-name="ydieresis" unicode="&#xff;" horiz-adv-x="538" 
d="M484 500l-189 -441l-134 -312h-45l126 293l-200 460h45l176 -401l177 401h44zM183 700q8 0 13.5 -5.5t5.5 -13.5q0 -19 -19 -19q-8 0 -13.5 5.5t-5.5 13.5q0 7 6 13t13 6zM354 700q8 0 13.5 -5.5t5.5 -13.5q0 -19 -19 -19q-8 0 -13.5 5.5t-5.5 13.5q0 7 5.5 13t13.5 6z
" />
    <glyph glyph-name="Scaron" unicode="&#x160;" horiz-adv-x="540" 
d="M255 798l-146 69l17 35l130 -61l133 62l16 -35zM288 0q-6 0 -17 0.5t-41 6t-56.5 15t-56.5 30t-49 48.5l23 30q27 -41 76 -64.5t85 -25.5l36 -3q72 0 117 46t45 116q0 36 -14 63.5t-33 42.5t-46.5 26t-48 14.5t-43.5 6.5t-27 4q-23 4 -43 9.5t-45 18t-43 29.5t-30 44.5
t-12 62.5q0 75 55 128t137 53q45 0 88 -16t72 -43l-20 -34q-57 52 -139 56q-67 0 -111 -42t-44 -102q0 -52 40 -86.5t99 -40.5q247 -25 247 -199q0 -80 -58 -136t-143 -58z" />
    <glyph glyph-name="scaron" unicode="&#x161;" horiz-adv-x="397" 
d="M194 581l-146 69l17 35l130 -61l133 62l16 -35zM213 1q-51 0 -95.5 17t-67.5 45l17 29q60 -55 146 -56q49 1 79 30.5t30 76.5q0 29 -12.5 50.5t-31.5 32t-35.5 15t-31.5 5.5q-40 2 -73.5 12.5t-61.5 40t-28 74.5q0 55 40 94t100 39q73 0 119 -46l-19 -34q-41 40 -99 43
q-42 0 -73 -26t-31 -70q0 -46 32.5 -67.5t80.5 -24.5q63 -3 112 -40t49 -98q0 -60 -42.5 -101t-103.5 -41z" />
    <glyph glyph-name="Ydieresis" unicode="&#x178;" horiz-adv-x="620" 
d="M334 3h-44v304l-226 394h49l197 -348l194 348h50l-220 -387v-311zM224 900q8 0 13.5 -5.5t5.5 -13.5q0 -19 -19 -19q-8 0 -13.5 5.5t-5.5 13.5q0 7 5.5 13t13.5 6zM395 900q8 0 13.5 -5.5t5.5 -13.5q0 -19 -19 -19q-8 0 -13.5 5.5t-5.5 13.5q0 7 6 13t13 6z" />
    <glyph glyph-name="Zcaron" unicode="&#x17d;" 
d="M316 798l-146 69l17 35l130 -61l133 62l16 -35zM557 41v-41h-466l380 663h-391v41h468l-386 -663h395z" />
    <glyph glyph-name="zcaron" unicode="&#x17e;" horiz-adv-x="446" 
d="M222 578l-146 69l17 35l130 -61l133 62l16 -35zM406 38v-38h-346l262 464h-276v38h347l-267 -464h280z" />
    <glyph glyph-name="circumflex" unicode="&#x2c6;" horiz-adv-x="412" 
d="M53 642l146 69l150 -70l-16 -35l-133 62l-130 -61z" />
    <glyph glyph-name="tilde" unicode="&#x2dc;" horiz-adv-x="493" 
d="M222 628q-31 33 -75 33q-39 0 -69 -28l-30 30q43 41 99 41q49 0 88 -31q46 -43 88 -43q41 0 69 27l30 -30q-40 -39 -99 -39q-49 0 -101 40z" />
    <glyph glyph-name="endash" unicode="&#x2013;" horiz-adv-x="472" 
d="M61 321h330v-41h-330v41z" />
    <glyph glyph-name="emdash" unicode="&#x2014;" horiz-adv-x="636" 
d="M67 321h483v-42h-483v42z" />
    <glyph glyph-name="quoteleft" unicode="&#x2018;" horiz-adv-x="226" 
d="M78 741l103 -138l-38 -27l-101 137z" />
    <glyph glyph-name="quoteright" unicode="&#x2019;" horiz-adv-x="214" 
d="M42 603l103 138l36 -28l-101 -137z" />
    <glyph glyph-name="quotesinglbase" unicode="&#x201a;" horiz-adv-x="238" 
d="M48 -48l103 138l36 -28l-101 -137z" />
    <glyph glyph-name="quotedblleft" unicode="&#x201c;" horiz-adv-x="329" 
d="M150 741l103 -138l-38 -27l-101 137zM86 695l103 -138l-38 -27l-101 137z" />
    <glyph glyph-name="quotedblright" unicode="&#x201d;" horiz-adv-x="306" 
d="M50 603l103 138l36 -28l-101 -137zM114 557l103 138l36 -28l-101 -137z" />
    <glyph glyph-name="quotedblbase" unicode="&#x201e;" horiz-adv-x="314" 
d="M55 -14l103 138l36 -28l-101 -137zM119 -60l103 138l36 -28l-101 -137z" />
    <glyph glyph-name="bullet" unicode="&#x2022;" horiz-adv-x="220" 
d="M107 341q17 0 28.5 -12.5t11.5 -28.5q0 -17 -11.5 -28.5t-28.5 -11.5q-16 0 -28.5 11.5t-12.5 28.5q0 16 12.5 28.5t28.5 12.5z" />
    <glyph glyph-name="guilsinglleft" unicode="&#x2039;" horiz-adv-x="833" 
 />
    <glyph glyph-name="Euro" unicode="&#x20ac;" horiz-adv-x="783" 
d="M136 235l-9 24h-78v15h75q-9 54 -2 152h-73v15h76q42 120 133.5 188t205.5 68q91 0 172 -46l-16 -32q-71 41 -156 41q-109 0 -180 -49.5t-121 -169.5h319v-15h-323q-11 -76 0 -152h323v-15h-320q76 -211 302 -221q74 -3 157 45l16 -34q-84 -46 -173 -46q-111 0 -201.5 64
t-126.5 168z" />
    <glyph glyph-name="CR" horiz-adv-x="500" 
 />
    </font>
</defs>
</svg>
